#TITLE:Speed Japan;
#SUBTITLE:~Paradox re-edit~;
#ARTIST:Wildside;
#TITLETRANSLIT:;
#SUBTITLETRANSLIT:;
#ARTISTTRANSLIT:;
#CREDIT:;
#BANNER:Speed Japan-bn.png;
#BACKGROUND:Speed Japan-bg.png;
#LYRICSPATH:;
#CDTITLE:Prdx.png;
#MUSIC:Speed Japan.mp3;
#OFFSET:-0.080;
#SAMPLESTART:52.543;
#SAMPLELENGTH:11.880;
#SELECTABLE:YES;
#BPMS:0.000=169.000;
#STOPS:;
#BGCHANGES:;
// cache tags:
#FIRSTBEAT:0.000;
#LASTBEAT:271.500;
#SONGFILENAME:Songs/Chilean Keyboard Megapack 3/(Paradox) Speed Japan/Speed Japan.sm;
#HASMUSIC:1;
#HASBANNER:1;
#MUSICLENGTH:97.914;
// end cache tags

//---------------dance-single - ----------------
#NOTES:
     dance-single:
     :
     Challenge:
     11:
     1.000,1.000,1.000,0.225,0.945,599.000,122.000,22.000,0.000,1.000:
0001
0000
1000
0000
0001
0000
1000
0001
1000
0000
0001
0000
1000
0000
0000
0000
,
0001
0000
1000
0000
0010
0000
0100
0001
0100
0000
0010
0000
1000
0000
0000
0000
,
0100
0000
0010
0000
0100
0000
0001
0100
0001
0000
1000
0000
0010
0000
0000
0000
,
1000
0000
0001
0000
0100
0000
0001
0010
0001
0000
1000
0000
0100
0000
0000
0000
,
0001
1000
0110
0000
0010
0100
0011
0000
,
1000
0100
1100
0000
0001
0100
1001
0000
,
0010
0100
0011
0000
0100
0001
1100
0000
,
0010
0100
1001
0000
0001
1000
0110
0000
,
0001
0000
1000
0000
0001
0000
1000
0200
,
0000
0000
0000
0000
0000
0000
0000
0300
,
1001
1001
1001
1001
1001
0000
1001
0220
,
0000
0000
0000
0000
0000
0000
0000
0330
,
1001
0000
0110
0000
1100
0000
0011
2002
,
0000
0000
0000
0000
0000
0000
0000
3003
,
1100
0011
1100
0011
1100
0000
0110
1001
,
1000
0001
1000
0001
1000
0001
1000
0001
,
1000
0001
0100
0001
1000
0010
1000
0100
1000
0001
0100
0001
1000
0100
0010
0001
,
0010
0100
1000
0100
0010
0001
0010
0100
1000
0100
1000
0001
0100
0001
0010
0001
,
1000
0100
1000
0001
1000
0001
0010
0100
1000
0100
0010
0001
1000
0100
1000
0001
,
0100
0001
0010
0100
1000
0100
0010
0001
1000
0100
1000
0001
0100
0001
0010
0001
,
1000
0100
1000
0001
0100
0001
0010
0100
1000
0001
0010
0100
1000
0100
0010
0001
,
0010
0100
1000
0001
0100
0001
1000
0010
1000
0001
0100
0001
1000
0100
0010
0001
,
0010
0100
1000
0001
1000
0100
1000
0100
0010
0001
1000
0001
0100
0001
1000
0010
,
1000
0100
0010
0001
0010
0100
1000
0001
0100
0001
1000
0100
1000
0001
0010
0100
,
2002
0000
0000
0000
3003
0110
1001
1100
,
0000
0110
0011
1100
0000
0110
1001
0011
,
1100
1010
0110
1001
0000
0001
1000
0001
,
2000
3002
0203
0320
,
1031
0000
0110
0000
0011
0000
1100
1001
,
0000
0001
1000
0001
0000
1000
0100
1000
,
0001
0100
0001
0010
0000
0001
1000
0001
,
0200
0000
0320
0000
2030
3000
1001
0110
,
1001
0000
1001
0000
0110
0000
0011
1100
,
0002
0003
2000
3000
0002
0003
0100
0020
,
0000
0030
2000
3000
0002
0000
0003
2000
,
3000
0001
0100
0001
0010
0000
0000
1000
,
0000
1000
0001
0100
0020
0000
0000
0030
,
1001
0000
1001
0000
1001
0000
0110
1001
,
0000
1001
0000
1001
0000
1001
0000
0110
,
0000
0011
1100
0110
1001
0000
0011
1100
,
0000
1001
0000
1001
0000
1001
0000
0110
,
0000
0110
0011
1001
1100
0000
0011
1001
,
0000
0001
1000
0001
1000
0000
0000
0110
,
0000
0110
0011
1100
0011
0000
0110
1001
,
0000
0001
0000
1000
0000
0110
0110
0000
,
0110
0000
1001
0000
0110
0000
1001
1001
,
0000
1001
0000
1001
0000
1001
0000
1100
,
0000
0011
0110
1001
0101
0000
0110
0101
,
0000
1001
0000
1001
0000
1001
0000
0001
,
0000
1100
0110
0011
1100
0000
0011
0110
,
0000
1000
0001
1000
0001
0000
0000
0110
,
0000
1100
0011
0110
1010
0000
1001
1001
,
0000
0001
0000
1000
0000
1001
1001
0000
,
1000
0001
0100
0001
1000
0001
1000
0100
0010
0001
0100
0010
0100
0001
0010
0100
,
1000
0001
1000
0001
0100
0010
0100
0010
1000
0100
1000
0100
0010
0001
0010
0001
,
1000
0010
0100
0001
0010
0100
1000
0010
0100
0001
1000
0100
0010
0001
0100
0010
,
1000
0100
1000
0100
0010
0001
0010
0001
0100
0010
0100
0010
1000
0001
1000
0001
,
0100
0010
1000
0001
0010
0100
1000
0100
0010
0001
0100
0001
1000
0100
1000
0001
,
0100
0010
0100
0010
1000
0100
1000
0100
0010
0001
0010
0001
1000
0001
1000
0001
,
1000
0010
1000
0100
1000
0001
0100
0010
0100
0001
0010
0001
0100
0010
1000
0001
,
0100
0010
0100
0010
1000
0010
1000
0010
0100
0001
0100
0001
1000
0100
1000
0001
,
0100
0001
1000
0100
0010
0001
0010
0100
1000
0001
0100
0001
1000
0100
1000
0010
,
1000
0001
0100
0001
1000
0100
0010
0001
1000
0001
0010
0100
1000
0001
0010
0100
,
1000
0001
0100
0001
1000
0010
1000
0100
0010
0001
1000
0001
0100
0001
1000
0010
,
1000
0100
0010
0001
0010
0100
1000
0001
0100
0001
1000
0100
0010
0001
0010
0100
,
1000
0001
0100
0001
1000
0010
1000
0001
0100
0001
0010
0100
1000
0100
1000
0100
,
1000
0001
0100
0001
0010
0001
1000
0001
0100
0001
1000
0100
0010
0001
0010
0100
,
1000
0100
1000
0100
1000
0001
0100
0001
0100
0001
1000
0000
1001
0000
1001
0000
;
